Skip to main content

The Sundogs Live at Oyster Fest, Steamer's Restaurant - Outside on 2010-02-20


Topics Z-Man, Soundboard


The Sundogs With Benji Shanks
Oyster Fest
Steamer's Restaurant - Outside
Atlanta, Georgia
2/20/2010

Source: Soundcraft H2>Lunatec V2>Benchmark AD2K>
Sound Devices 722 (24/48)
SBB/DFC/KFC/ZFC/AARP
DSP: Sound Devices 722>Sound Forge 9.0>CD Wave>flac(16)
Recorded By: Z-Man


Disc I

01 Intro By Star 94 FM
02 Modern Day Miracle
03 Believe
04 Bad News
05 Las Vegas
06 You Wreck Me
07 Desperation And Borrowed Time
08 Continuing Adventures Of Elvis
09 Walkin' Shoes
10 Livin' In A Dream
11 Bitter Tears

Disc II

01 Valentines Day
02 Liquor Ain't Love
03 Peace Again
04 Jealous Again
05 Oasis
Encore:
06 Tuning
07 Working For MCA
08 Instrument Of Change >
09 Fortunate Son


Collection TheSundogs
Band/Artist The Sundogs
Venue Oyster Fest, Steamer's Restaurant - Outside
Location Atlanta, GA

Source Soundcraft H2 SBD > Lunatec V2 > Benchmark AD2K > Sound Devices 722 (24/48)
Lineage Sound Devices 722>Sound Forge 9.0>CD Wave>flac(16)
Taped by Z-Man
Transferred by Z-Man

Notes

The Sundogs With Benji Shanks
Oyster Fest
Steamer's Restaurant - Outside
Atlanta, Georgia
2/20/2010

Source: Soundcraft H2>Lunatec V2>Benchmark AD2K>
Sound Devices 722 (24/48)
SBB/DFC/KFC/ZFC/AARP
DSP: Sound Devices 722>Sound Forge 9.0>CD Wave>flac(16)
Recorded By: Z-Man
Uploaded To Archive.org By: ekoostikal (capt.krinklebeiniii@yahoo.com)





Shntool

length expanded size cdr WAVE problems fmt ratio filename
0:47.22 8342588 B --- -- ---xx flac 0.3212 sundogs2010-02-20d01t01.flac
5:20.26 56509196 B --- -- ---xx flac 0.5162 sundogs2010-02-20d01t02.flac
4:11.54 44403452 B --- -- ---xx flac 0.4933 sundogs2010-02-20d01t03.flac
4:18.66 45666476 B --- -- ---xx flac 0.5102 sundogs2010-02-20d01t04.flac
7:23.59 78284012 B --- -- ---xx flac 0.4582 sundogs2010-02-20d01t05.flac
4:03.45 42971084 B --- -- ---xx flac 0.4797 sundogs2010-02-20d01t06.flac
4:58.20 52614284 B --- -- ---xx flac 0.4681 sundogs2010-02-20d01t07.flac
4:23.62 46539068 B --- -- ---xx flac 0.4683 sundogs2010-02-20d01t08.flac
4:27.15 47134124 B --- -- ---xx flac 0.4716 sundogs2010-02-20d01t09.flac
6:01.41 63776876 B --- -- ---xx flac 0.4830 sundogs2010-02-20d01t10.flac
4:12.07 44469308 B --- -- ---xx flac 0.4752 sundogs2010-02-20d01t11.flac
6:21.74 67382492 B --- -- ---xx flac 0.4335 sundogs2010-02-20d02t01.flac
5:56.12 62826668 B --- -- ---xx flac 0.4799 sundogs2010-02-20d02t02.flac
8:09.20 86306684 B --- -- ---xx flac 0.3993 sundogs2010-02-20d02t03.flac
6:07.09 64760012 B --- -- ---xx flac 0.4619 sundogs2010-02-20d02t04.flac
5:45.51 60977996 B --- -- ---xx flac 0.4619 sundogs2010-02-20d02t05.flac
1:45.19 18566732 B --- -- ---xx flac 0.2347 sundogs2010-02-20d02t06.flac
5:52.22 62144588 B --- -- ---xx flac 0.5177 sundogs2010-02-20d02t07.flac
7:22.00 77968844 B --- -- ---xx flac 0.4798 sundogs2010-02-20d02t08.flac
4:52.63 51657020 B --- -- ---xx flac 0.5103 sundogs2010-02-20d02t09.flac
102:21.12 1083301504 B 0.4674 (20 files)

Reviews

There are no reviews yet. Be the first one to write a review.
DOWNLOAD OPTIONS
In Collection
The Sundogs
In Collection
Live Music Archive
Uploaded by
ekoostikal
on 2/25/2010
Views
261
Favorites
1
PEOPLE ALSO FOUND
The Sundogs
by The Sundogs
110
1
0
Source: Schoeps CCM4V'S(din)>Lunatec V2>Benchmark AD2K> Sound Devices 722 (24/48)
The Sundogs
259
1
0
Source: Soundcraft H2 SBD > Lunatec V2 > Benchmark AD2K > Sound Devices 722 (24/48)
Phil Lesh and Friends
by Phil Lesh and Friends
1,032
1
0
Source: 2x Beyerdynamic MC930's(Matched Stereo Pair)(OTRF)@ 12 ft high >Canare Cables>Digi-Mod Edirol UA5>Nomad JB3(44.1 khz)
New Riders of the Purple Sage
by New Riders of the Purple Sage
226
1
0
Source: Schoeps CCM4V'S(din)>Lunatec V2>Benchmark AD2K> Sound Devices 722 (24/48) BOB/DFC/KFC/ZFC/AARP 30' From Stage, 7' High
Phil Lesh and Friends
by Phil Lesh and Friends
2,456
1
1
( 1 reviews )
Source: Neumann Km 184 Mics > Lunatec V2 > Korg Mr-1000
The Macpodz
by The Macpodz
114
1
0
Source: schoeps CCM4V'S(din)>Lunatec V2>Benchmark AD2K> Sound Devices 722 (24/48)
Charlie Wooton Project
by Charlie Wooton Project
204
1
0
Source: Schoeps CCM4V'S(din)>Lunatec V2>Benchmark AD2K> Sound Devices 722 (24/48) FOB/DFC/KFC/ZFC/AARP 8' From Stage, 7' High
Phil Lesh and Friends
by Phil Lesh and Friends
611
1
0
Source: 2x Beyerdynamic MC930's(Matched Stereo Pair)(OTRF)@ 12 ft high >Canare Cables>Digi-Mod Edirol UA5>Nomad JB3(44.1 khz)
Grace Potter and the Nocturnals
by Grace Potter and the Nocturnals
1,521
1
0
Source: Schoeps CCM4V'S(din)>Lunatec V2>Sound Devices 722 (24/48) location: FOB/DFC/KFC/ZFC/AARP 26'Feet From Stage 7' High
Charlie Wooton Project
by Charlie Wooton Project
84
2
0
Source: Schoeps CCM4V'S(din)>Lunatec V2>Benchmark AD2K> Sound Devices 722 (24/48) FOB/DFC/KFC/ZFC/AARP 3' From Stage, 7' High